#TITLE:Robotix;
#SUBTITLE:;
#ARTIST:Kbit;
#TITLETRANSLIT:;
#SUBTITLETRANSLIT:;
#ARTISTTRANSLIT:;
#GENRE:Trance;
#CREDIT:;
#BANNER:Robotix-banner.png;
#BACKGROUND:Robotix-bg.png;
#LYRICSPATH:;
#CDTITLE:;
#MUSIC:Robotix - Kbit.ogg;
#OFFSET:0.002;
#SAMPLESTART:19.180;
#SAMPLELENGTH:11.160;
#SELECTABLE:YES;
#DISPLAYBPM:150.000;
#BPMS:0.000=150.000,144.000=170.001,147.000=200.002,148.500=230.024,149.500=244.264,151.000=245.884,152.000=260.824,154.000=275.005,156.000=300.005,158.000=325.006,160.000=350.007,162.000=390.008,164.000=420.011,166.000=460.014,168.000=519.995,172.000=549.998,176.000=650.002,180.000=700.006,184.000=801.631,188.000=899.999,192.000=1000.008,232.000=1006.921,236.000=1013.951,240.000=1050.003,244.000=1200.000,256.000=1010.000,264.000=973.476,268.000=829.447,272.000=620.002,274.000=539.008,276.000=489.995,278.000=399.996,280.000=232.002,281.000=210.004,282.000=166.002,283.000=149.999,313.000=149.959,330.000=149.999,344.000=150.039,360.000=149.959,377.000=149.999;
#STOPS:313.000=0.395
,344.000=0.395
,381.000=0.002
;
#BGCHANGES:0.000=Robotix-bg.png=1.000=0=0=1=====,
16.000=In The Groove 2/864_JumpBack.mpg=1.400=0=0=1=====,
32.000=In The Groove 2/953_JumpBack.mpg=1.400=0=0=1===FadeLeft==,
48.000=In The Groove 2/592_JumpBack.mpg=1.400=0=0=1=====,
64.000=-random-=1.000=0=0=1===FadeRight==,
76.333=In The Groove 2/628_JumpBack.mpg=1.000=0=0=1=SongBgWithMovieViz====,
76.667=In The Groove 2/628_JumpBack.mpg=1.000=0=0=1=====,
77.000=In The Groove 2/628_JumpBack.mpg=1.000=0=0=1=SongBgWithMovieViz====,
78.000=In The Groove 2/628_JumpBack.mpg=1.000=0=0=1=====,
79.000=In The Groove 2/628_JumpBack.mpg=1.000=0=0=1=SongBgWithMovieViz====,
80.000=In The Groove 2/751_JumpBack.mpg=1.400=0=0=1=====,
96.000=In The Groove 2/751_JumpBack.mpg=0.300=0=0=1=Checkerboard1File2x2====,
112.000=In The Groove 2/963_JumpBack.mpg=1.000=0=0=1=====,
128.000=In The Groove 2/963_JumpBack.mpg=0.300=0=0=1=Checkerboard1File2x2====,
144.000=730_JumpBack.mpg=1.000=0=0=1=====,
176.000=730_JumpBack.mpg=1.400=0=0=1=====,
276.000=In The Groove 2/628_JumpBack.mpg=1.000=1=0=1=SongBgWithMovieViz==CrossFade==,
283.000=In The Groove 2/953_JumpBack.mpg=1.400=0=0=1=====,
299.000=In The Groove 2/953_JumpBack.mpg=0.300=0=0=1=Checkerboard1File2x2====,
313.000=In The Groove 2/953_JumpBack.mpg=1.000=0=0=1=SongBgWithMovieViz====,
314.000=In The Groove 2/592_JumpBack.mpg=1.400=0=0=1=====,
330.000=-random-=1.000=0=0=1=====,
344.000=In The Groove 2/953_JumpBack.mpg=1.000=0=0=1=SongBgWithMovieViz====,
345.000=In The Groove 2/864_JumpBack.mpg=1.000=0=0=1=====,
361.000=-random-=1.000=0=0=1===FadeRight==,
373.333=In The Groove 2/632_JumpBack.mpg=1.000=0=0=1=SongBgWithMovieViz====,
373.667=In The Groove 2/632_JumpBack.mpg=1.000=0=0=1=====,
374.000=In The Groove 2/632_JumpBack.mpg=1.000=0=0=1=SongBgWithMovieViz====,
375.000=In The Groove 2/632_JumpBack.mpg=1.000=0=0=1=====,
376.000=In The Groove 2/632_JumpBack.mpg=1.000=0=0=1=SongBgWithMovieViz====,
377.000=Robotix-bg.png=1.000=0=0=1=====,
99999=-nosongbg-=1.000=0=0=0 // don't automatically add -songbackground-
;
#BGCHANGES2:16.000=flash=1.000=0=0=1=====,
48.000=flash=1.000=0=0=1====1^1^0^1=,
72.000=flash=1.000=0=0=1====1^1^0^1=,
74.000=flash=1.000=0=0=1====0^1^1^1=,
80.000=flash=1.000=0=0=1=====,
112.000=flash=1.000=0=0=1=====,
140.000=flash=1.000=0=0=1====1^1^0^1=,
144.000=flash=1.000=0=0=1=====,
283.000=flash=1.000=0=0=1=====,
314.000=flash=1.000=0=0=1=====,
330.000=flash=1.000=0=0=1====1^1^0^1=,
345.000=flash=1.000=0=0=1=====,
369.000=flash=1.000=0=0=1====1^1^0^1=,
371.000=flash=1.000=0=0=1====0^1^1^1=,
377.000=flash=1.000=0=0=1=====,
;
#KEYSOUNDS:;
// cache tags:
#FIRSTBEAT:16.000;
#LASTBEAT:380.000;
#SONGFILENAME:/Songs/In The Groove 2/Robotix/Robotix.sm;
#HASMUSIC:0;
#HASBANNER:0;
#MUSICLENGTH:100.000;
// end cache tags

//---------------dance-single - K.W----------------
#NOTES:
     dance-single:
     K.W:
     Hard:
     8:
     0.590,1.000,0.550,0.250,0.230,333.000,55.000,25.000,94.000,0.000,2.000:
0000
0000
0000
0000
,
0000
0000
0000
0000
,
0000
0000
0000
0000
,
0000
0000
0000
0000
,
0000
0001
0010
0000
0000
0010
0001
0000
0000
0001
1000
0000
0000
1000
0100
0000
,
0000
0100
0010
0000
0000
0010
0100
0000
0000
0100
1000
0000
0010
0000
0010
0000
,
0000
0100
0001
0000
0000
0001
0010
0000
0000
0010
0001
0000
0000
0001
1000
0000
,
0000
1000
0010
0000
0000
0010
0100
0000
0000
0100
0001
0000
0011
0000
0000
0000
,
0001
0010
0001
0000
0100
0010
0100
0000
0001
0010
0001
0000
1000
0100
1000
0000
,
0010
0100
0010
0000
1000
0001
1000
0000
0001
0010
0001
0000
0200
0000
0000
0000
,
0310
0100
1000
0100
0010
0001
0010
0100
,
1001
0110
0011
1100
,
0001
0000
0001
0000
0100
0010
0000
0000
0110
0000
0000
0000
0100
0000
0100
0000
,
0010
0000
0010
0000
1000
0100
0000
0000
1100
0000
0000
0000
1000
0000
1000
0000
,
0001
0000
0001
0000
0010
0001
0000
0000
0011
0000
0000
0000
1000
0000
1000
0000
,
0001
0100
1000
0100
0001
0000
0110
0000
,
1000
0000
1010
0000
0000
0010
0100
0000
0110
0000
0000
0000
0010
0000
0100
0000
,
0001
0000
0011
0000
0000
0001
0100
0000
0110
0000
0000
0000
0001
0000
1000
0000
,
0100
0110
1000
1100
,
0000
0001
0000
1000
0000
0010
0000
0000
0100
0000
0000
0000
2002
0000
0000
3003
,
M00M
0000
0011
0000
0000
1100
0000
0000
,
0000
0000
0110
0000
0000
1001
0000
1100
,
0000
0000
0000
0000
0011
0000
0000
0000
0000
0000
2002
0000
0000
0000
0000
3003
,
0000
0000
1100
0000
0000
0110
0000
0012
,
0000
0000
0103
0000
0010
0000
0000
0100
0001
0000
0010
0000
0002
0000
0000
0000
,
0023
0000
0230
0000
0310
0002
0000
1003
,
0000
0000
0110
0000
0000
0011
0000
0000
,
1000
0100
1000
0100
1000
0000
0000
0000
0110
0000
0000
0000
1001
0000
0000
0000
,
0001
0100
1000
0100
0001
0100
1000
0100
,
0001
0010
0001
0010
0100
0110
0000
1100
,
0000
1000
0010
0001
0010
1000
0010
0001
,
0020
0000
0130
0000
0002
0000
1003
M00M
,
0100
0010
1000
0010
0100
0010
1000
0100
,
0010
0100
1000
0010
0100
0001
0010
0022
,
0000
0033
0110
0000
0000
1001
0000
0000
,
1000
0100
1000
0100
1000
0000
0000
0000
0011
0000
0000
0000
0110
0000
M00M
0000
,
4000
0004
0000
0000
00M0
0000
0000
0000
0000
0000
0000
0000
0M00
0000
0000
0000
,
0000
00M0
0000
0M00
,
0000
00M0
0000
0M00
,
0000
00M0
0000
0M00
,
0000
00M0
0000
0M00
,
0000
00M0
0000
0M00
,
0000
00M0
0000
0M00
,
0000
00M0
0000
0M00
,
0000
00M0
0000
0M00
,
0000
00M0
0000
0M00
,
0000
00M0
0000
0M00
,
0000
00M0
0M00
0000
,
00M0
0000
0M00
0000
,
00M0
0000
0M00
0000
,
00M0
0000
0M00
0000
,
00M0
0000
0M00
0000
,
00M0
0000
0M00
0000
,
00M0
0000
0M00
0000
,
00M0
0000
0M00
0000
,
00M0
0000
0M00
0000
,
00M0
0000
0M00
0000
,
00M0
0000
0M00
0000
,
00M0
0000
0M00
0000
,
00M0
0000
0M00
0000
,
00M0
0000
0M00
0000
,
0MM0
0000
0MM0
0000
,
0MM0
0000
0MM0
0000
,
0MM0
0000
0MM0
0000
,
0MM0
0000
0MM0
0000
,
0MM0
0000
0MM0
0000
,
0MM0
0000
0MM0
0000
,
0MM0
0000
00M0
0000
,
0M00
0000
00M0
0000
,
0M00
0000
00M0
0000
,
0M00
3003
M00M
1000
,
1100
0001
0011
0100
,
0110
0000
0000
0000
0000
0100
0000
0000
1001
0000
0000
0000
1000
0000
0100
0000
,
0001
0100
1000
0001
2000
0000
3002
0000
,
0013
0000
0000
0000
0000
0010
0100
0000
1001
0000
0000
0000
1000
0000
0010
0000
,
0001
0000
0001
0010
1000
0000
0010
0100
,
0001
0000
1000
0000
0000
0100
0010
0000
1001
0000
0000
0000
0010
0000
0100
0000
,
0010
0001
0010
0100
0010
1000
0002
0000
,
2003
0000
3100
MM00
0001
0010
0100
1000
,
0001
1000
1000
0000
0100
0010
0001
0010
,
0100
0010
0010
0000
0100
1000
0010
0100
,
0001
1000
1000
0000
0100
0000
1100
0000
,
0001
0000
0011
0000
2000
0000
0000
0100
,
3100
0000
0110
0000
0200
0000
0000
0010
,
0310
0000
0011
0000
0002
0000
0000
1000
,
1003
0000
1001
0000
0010
0100
0010
0100
,
1001
0000
M00M
0000
0001
0010
0001
0000
0010
0000
0100
0000
2000
0000
0000
0000
,
3100
0000
0000
0000
0100
0010
0001
0000
0010
0000
0100
0000
0010
0000
0000
0000
,
1100
0000
0000
0000
0010
0001
0010
0000
0100
0000
0001
0000
0020
0000
0000
0000
,
0031
0100
1000
0010
,
0001
0000
0000
0000
1000
0001
1000
0000
0000
0000
0010
0000
0100
0000
0001
0000
,
0010
0000
0000
0000
0001
1000
0001
0000
0000
0000
0010
0000
0100
0000
0010
0000
,
0110
1100
0010
1001
,
0100
0000
0000
0000
0000
0010
0000
1000
0000
0001
0000
0000
0010
0000
0000
0000
,
0110
2002
0000
0000
,
3003
0000
0000
0000
;

//---------------dance-single - K.W----------------
#NOTES:
     dance-single:
     K.W:
     Easy:
     4:
     0.303,0.475,0.290,0.130,0.000,170.000,29.000,13.000,0.000,0.000,0.000:
0000
0000
0000
0000
,
0000
0000
0000
0000
,
0000
0000
0000
0000
,
0000
0000
0000
0000
,
1000
1000
0001
0001
,
1000
0000
1000
0000
0001
0000
0001
1000
,
0010
0010
0100
0100
,
0010
0001
0100
1000
,
0100
0100
0010
0010
,
0001
0000
0001
0000
0010
0000
0010
0001
,
0100
0100
0001
1000
,
0010
0100
0001
0000
,
0100
1001
0000
0000
,
0010
0110
0000
0000
,
0100
1001
0000
0000
,
0010
0010
0100
0100
,
1000
1100
0000
0000
,
0001
0011
0000
0000
,
0100
1100
0000
0000
,
0010
0100
0001
0010
,
2200
0000
3300
0000
,
0001
0010
0010
0100
,
0020
0000
0030
0000
,
0100
0000
0010
0001
,
1000
1001
0000
0000
,
0100
0000
0010
0000
,
2002
0000
3003
0000
,
0100
0010
0100
0001
,
0010
0000
0100
0100
,
1000
0000
0000
0000
0010
0000
0100
0001
,
0010
0010
0000
0000
,
0220
0000
0330
1001
,
0000
0110
0000
0011
,
0000
1100
0000
0010
,
0100
1001
0000
0000
,
0010
0001
0100
1000
,
2002
0000
0000
0000
,
0000
0000
0000
0000
,
0000
0000
0000
0000
,
0000
0000
0000
0000
,
0000
0000
0000
0000
,
0000
0000
0000
0000
,
0000
0000
0000
0000
,
0000
0000
0000
0000
,
0000
0000
0000
0000
,
0000
0000
0000
0000
,
0000
0000
0000
0000
,
0000
0000
0000
0000
,
0000
0000
0000
0000
,
0000
0000
0000
0000
,
0000
0000
0000
0000
,
0000
0000
0000
0000
,
0000
0000
0000
0000
,
0000
0000
0000
0000
,
0000
0000
0000
0000
,
0000
0000
0000
0000
,
0000
0000
0000
0000
,
0000
0000
0000
0000
,
0000
0000
0000
0000
,
0000
0000
0000
0000
,
0000
0000
0000
0000
,
0000
0000
0000
0000
,
0000
0000
0000
0000
,
0000
0000
0000
0000
,
0000
0000
0000
0000
,
0000
0000
0000
0000
,
0000
0000
0000
0000
,
0000
0000
0000
0000
,
0000
0000
0000
0000
,
0000
0000
0000
0000
,
3003
0000
0000
1000
,
1000
0000
0000
0001
,
0001
0000
0000
0100
,
0100
0000
0000
0000
0000
0000
0010
0100
,
0010
0100
0000
0001
,
0011
0000
0000
1000
,
1100
0000
0000
0010
,
0110
0000
0000
1100
,
0000
0000
0011
0000
1000
0100
1000
0000
,
0001
0000
0001
0000
0100
0010
0100
0000
,
0001
0000
0001
0000
1000
0100
1000
0000
,
0001
0001
0100
1000
,
0010
0000
0001
0000
0100
0010
0100
0000
,
0000
0000
0001
0000
0010
0100
0010
0000
,
0000
0000
0001
0000
1000
0100
1000
0000
,
0000
0001
0100
0010
,
1001
1000
0001
0010
,
0100
1000
0001
0010
,
0100
1000
0001
0010
,
0100
1000
0001
0011
,
0000
1000
1100
0000
,
0000
0001
0011
0000
,
0000
1100
0010
0110
,
0001
0022
0000
0033
,
0000
2002
0000
0000
,
3003
0000
0000
0000
;

//---------------dance-double - M.Emirzian----------------
#NOTES:
     dance-double:
     M.Emirzian:
     Easy:
     4:
     0.241,0.424,0.370,0.020,0.005,130.000,37.000,2.000,0.000,0.000,0.000:
00000000
00000000
00000000
00000000
,
00000000
00000000
00000000
00000000
,
00000000
00000000
00000000
00000000
,
00000000
00000000
00000000
00000000
,
00100000
00000000
10010000
00000000
,
01000000
00000000
10010000
00000000
,
00001000
00000000
00011000
00000000
,
01000000
00000000
00011000
00000000
,
00000010
00000000
00001001
00000000
,
00000100
00000000
00001001
00000000
,
00000010
00000000
00011000
00000000
,
00000100
00000000
00011000
00000000
,
01000000
00000000
00110000
00000000
,
01000000
00000000
10100000
00000000
,
01000000
00000000
00011000
00000000
,
00000100
00000000
00001010
00000000
,
00000001
00000000
00000101
00000000
,
00000010
00000000
00001100
00000000
,
00010000
00000000
00011000
00000000
,
00000000
00001000
00000000
00000000
00000000
00000000
00000000
00000000
00011000
00000000
00000000
00000000
01000000
00000000
00000000
00000000
,
01001000
00000000
00000000
00000000
,
10010000
00000000
00000000
00000000
,
00001001
00000000
00000000
00000000
,
10010000
00000000
00000000
00000000
,
00001001
00000000
00000000
00000000
,
10010000
00000000
00000000
00000000
,
00001001
00000000
00000000
00000000
,
10010000
00000000
00000000
00000000
,
00001001
00000000
00001000
00000000
,
10010000
00000000
00010000
00000000
,
00001001
00000000
00001000
00000000
,
10010000
00000000
00010000
00000000
,
00001001
00000000
00001000
00000000
,
10010000
00000000
00010000
00000000
,
00001001
00000000
00010000
00000000
,
00001001
00011000
10010000
00000000
,
00022000
00000000
00000000
00000000
,
00000000
00000000
00000000
00000000
,
00000000
00000000
00000000
00000000
,
00000000
00000000
00000000
00000000
,
00000000
00000000
00000000
00000000
,
00000000
00000000
00000000
00000000
,
00000000
00000000
00000000
00000000
,
00000000
00000000
00000000
00000000
,
00000000
00000000
00000000
00000000
,
00000000
00000000
00000000
00000000
,
00000000
00000000
00000000
00000000
,
00000000
00000000
00000000
00000000
,
00000000
00000000
00000000
00000000
,
00000000
00000000
00000000
00000000
,
00000000
00000000
00000000
00000000
,
00000000
00000000
00000000
00000000
,
00000000
00000000
00000000
00000000
,
00000000
00000000
00000000
00000000
,
00000000
00000000
00000000
00000000
,
00000000
00000000
00000000
00000000
,
00000000
00000000
00000000
00000000
,
00000000
00000000
00000000
00000000
,
00000000
00000000
00000000
00000000
,
00000000
00000000
00000000
00000000
,
00000000
00000000
00000000
00000000
,
00000000
00000000
00000000
00000000
,
00000000
00000000
00000000
00000000
,
00000000
00000000
00000000
00000000
,
00000000
00000000
00000000
00000000
,
00000000
00000000
00000000
00000000
,
00000000
00000000
00000000
00000000
,
00000000
00000000
00000000
00000000
,
00000000
00000000
00000000
00000000
,
00000000
00000000
00000000
00000000
,
00000000
00000000
00033000
00001000
,
01000000
00001000
00000000
00010000
,
01000000
00010000
00000000
10000000
,
01000000
10000000
00000000
00001000
,
00010000
00001000
00000000
00000100
,
00001000
00000100
00000000
00000001
,
00001000
00000001
00000000
00001000
,
00000100
00001000
00000000
01000000
,
00100000
01000000
00010000
01000000
,
00010000
00000000
00001000
00010000
,
00001000
00000000
00000001
00001000
,
00000001
00000000
00000100
00001000
,
00000100
00000000
00000010
00010000
,
00000010
00000000
00010000
00001000
,
00010000
00000000
00010000
01000000
,
00010000
00000000
10000000
00010000
,
10000000
00001000
00010000
00001000
,
00000000
00000100
00000010
00000100
,
00000000
00000001
00001000
00000001
,
00000000
00001000
00010000
00001000
,
00000000
00010000
10000000
00010000
,
00000000
10000000
00010000
01000000
,
00000000
00001000
00010000
00001000
,
00000000
00000000
00000000
00011000
,
00000000
00010010
00000000
00000000
;

//---------------dance-double - M.Emirzian----------------
#NOTES:
     dance-double:
     M.Emirzian:
     Medium:
     6:
     0.403,0.566,0.160,0.020,0.005,264.000,16.000,2.000,0.000,0.000,0.000:
00000000
00000000
00000000
00000000
,
00000000
00000000
00000000
00000000
,
00000000
00000000
00000000
00000000
,
00000000
00000000
00000000
00000000
,
00010000
10000000
00010000
10000000
,
00001000
00000000
00010000
00000000
00001000
00000000
00010000
00000010
,
00010000
00001000
00000001
00001000
,
00000001
00000000
00010000
00000000
00001000
00000000
00010000
00001000
,
01000000
00010000
10000000
00010000
,
10000000
00000000
01000000
00000000
00100000
00000000
00010000
01000000
,
00001000
00010000
00001000
00010000
,
00000100
00000000
00001000
00000000
00000001
00000000
00001000
00000010
,
00000100
00000001
00001000
00000100
,
00010000
00000000
00001000
00000000
01000000
00000000
00010000
10000000
,
01000000
00100000
00010000
01000000
,
00100000
00000000
10000000
00000000
01000000
00000000
00100000
00001000
,
00010000
00000100
00001000
00000010
,
00001000
00000000
00000100
00000000
00000010
00000000
00000001
00001000
,
00000100
00000001
00000100
00001000
,
00000000
00000010
00000000
00000000
00000000
00000000
00000000
00000000
00011000
00000000
00000000
00000000
01001000
00000000
00000000
00000000
,
00110000
00000000
00010000
00000000
00000000
00001000
00000000
00000000
,
00100000
00000000
10000000
00000000
00000000
01000000
00000000
00100000
,
00010000
00000000
01000000
00000000
00000000
00001000
00000000
00000000
,
00010000
00000000
00001000
00000000
00000000
00000010
00000000
00000001
,
00001000
00000000
00000010
00000000
00000000
00000100
00000000
00000000
,
00000001
00000000
00001000
00000000
00000000
00000100
00000000
00010000
,
00001000
00000000
00000100
00000000
00000000
00001000
00000000
00000000
,
00010000
00001000
00010000
00001000
00010000
00000000
00011000
00000000
,
10000000
00010000
10000000
00000000
00000000
00110000
00000000
00000000
,
00001000
00010000
00001000
00000000
00000000
00001100
00000000
00001000
,
00000001
00001000
00000100
00000000
00000000
00001010
00000000
00000000
,
00010000
00001000
00010000
00000000
00000000
01001000
00000000
01000000
,
00010000
01000000
00100000
00000000
00000000
10100000
00000000
00000000
,
00100000
00010000
00100000
00000000
00000000
00011000
00000000
00000100
,
00001000
00000100
00001000
00000000
00000000
00000110
00000000
00000000
,
00000001
00000100
00000010
00001000
00000010
00000000
00001100
00000000
,
00002020
00000000
00000000
00000000
,
00000000
00000000
00000000
00000000
,
00000000
00000000
00000000
00000000
,
00000000
00000000
00000000
00000000
,
00000000
00000000
00000000
00000000
,
00000000
00000000
00000000
00000000
,
00000000
00000000
00000000
00000000
,
00000000
00000000
00000000
00000000
,
00000000
00000000
00000000
00000000
,
00000000
00000000
00000000
00000000
,
00000000
00000000
00000000
00000000
,
00000000
00000000
00000000
00000000
,
00000000
00000000
00000000
00000000
,
00000000
00000000
00000000
00000000
,
00000000
00000000
00000000
00000000
,
00000000
00000000
00000000
00000000
,
00000000
00000000
00000000
00000000
,
00000000
00000000
00000000
00000000
,
00000000
00000000
00000000
00000000
,
00000000
00000000
00000000
00000000
,
00000000
00000000
00000000
00000000
,
00000000
00000000
00000000
00000000
,
00000000
00000000
00000000
00000000
,
00000000
00000000
00000000
00000000
,
00000000
00000000
00000000
00000000
,
00000000
00000000
00000000
00000000
,
00000000
00000000
00000000
00000000
,
00000000
00000000
00000000
00000000
,
00000000
00000000
00000000
00000000
,
00000000
00000000
00000000
00000000
,
00000000
00000000
00000000
00000000
,
00000000
00000000
00000000
00000000
,
00000000
00000000
00000000
00000000
,
00000000
00000000
00000000
00000000
,
00000000
00000000
00003030
00001000
,
00000100
00000000
00010000
00001000
00010000
00000000
01000000
00000000
,
00010000
00000000
00001000
01000000
00010000
00000000
00100000
00000000
,
00010000
00000000
01000000
00100000
10000000
00000000
01000000
00000000
,
00100000
00010000
10000000
00010000
01000000
00000000
00100000
00000000
,
10000000
00000000
01000000
00100000
00010000
00000000
00100000
00000000
,
00001000
00000000
00100000
00001000
00010000
00000000
01000000
00000000
,
00010000
00000000
00001000
00010000
00000100
00000000
00001000
00000000
,
00000010
00000100
00000001
00000000
00000010
00000000
00000001
00000000
,
00001000
00000010
00000100
00000000
00000010
00000000
00001000
00000000
,
00000100
00010000
00001000
00000000
00000100
00000000
00001000
00000000
,
00010000
00001000
00100000
00000000
00010000
00000000
10000000
00010000
,
10000000
01000000
00100000
00000000
00010000
00000000
10000000
00000000
,
00100000
01000000
00010000
00000000
00100000
00000000
00001000
00010000
,
00000100
00001000
00000100
00000000
00000010
00000000
00000100
00000000
,
00001000
00000001
00001000
00000000
00000010
00000000
00000100
00000001
,
00001000
00000000
00000100
00000000
00010000
00000000
00001000
01000000
,
00010000
00000000
00100000
00000000
00010000
01000000
00100000
10000000
,
01000000
00000000
00100000
00000000
00001000
00000000
00010000
00000100
,
00001000
00000000
00000100
00000000
00010000
00001000
01000000
00010000
,
10000000
00000000
00010000
00000000
00000000
01000000
00100000
01000000
,
00000000
00001000
00010000
00001000
00000000
00000010
00000100
00000010
,
00000000
00000001
00001000
00000001
00000000
00000100
00000010
00001000
,
00000000
00000100
00010000
00001000
01000000
00000000
00011000
00000000
,
01001000
01010000
00000000
00000000
;

//---------------dance-double - M.Emirzian----------------
#NOTES:
     dance-double:
     M.Emirzian:
     Challenge:
     11:
     0.846,1.000,0.260,0.040,1.000,562.000,26.000,4.000,381.000,0.000,0.000:
00000000
00000000
00000000
00000000
,
00000000
00000000
00000000
00000000
,
00000000
00000000
00000000
00000000
,
00000000
00000000
00000000
00000000
,
00000000
00100000
10000000
00000000
01000000
00100000
00010000
01000000
00000000
00001000
00010000
00000000
00000100
00000010
00000001
00000100
,
00000000
00000010
00010000
00000000
00001000
01000000
00010000
00100000
00000000
01000000
10000000
00000000
00010000
01000000
00001000
00010000
,
00000000
01000000
00010000
00000000
00001000
00010000
00000100
00000010
00000000
00000100
00001000
00000000
00000010
00000100
00000001
00000010
,
00000000
00000100
00001000
00000000
00000001
00000100
00001000
00000100
00000000
00000010
00001000
00000000
00000100
00010000
00001000
01000000
,
00000000
00100000
00010000
00000000
00001000
10000000
00100000
10000000
00000000
00001000
00010000
00000000
00000001
00000010
00000001
00010000
,
00000000
00001000
00000100
00000000
00001000
00010000
00001000
01000000
00000000
00010000
00100000
00000000
01000000
10000000
00100000
10000000
,
00000000
00001000
00010000
00000000
00000001
00000100
00000001
00010000
00000000
00001000
00000010
00000000
00000100
00010000
00001000
00100000
,
00000000
00010000
01000000
00000000
10000000
01000000
00010000
01000000
00000000
00001000
00010000
00000000
00000001
00001000
00000001
00000100
,
00000010
00000000
00001000
00000000
00000100
00000010
00000000
00001000
00010000
00000000
00100000
01000000
00000000
00000000
00010000
10000000
,
01000000
00000000
00100000
00000000
01000000
00010000
00000000
00001000
00000100
00000000
00000001
00001000
00000000
00000000
00000100
00000010
,
00000001
00000000
00000100
00000000
00000010
00000100
00000000
00001000
00010000
00000000
01000000
00100000
00000000
00000000
00010000
10000000
,
00100000
01000000
00010000
01000000
00000000
00000000
00100000
00000000
10000000
01000000
00100000
00010000
00000000
00000000
01000000
00001000
,
00010000
00000000
00100000
00000000
01000000
00001000
00000000
00010000
00000100
00000000
00001000
00000010
00000000
00000000
00000100
00000001
,
00000010
00000000
00000100
00000000
00001000
00000010
00000000
00010000
00001000
00000000
01000000
00100000
00000000
00000000
01000000
00010000
,
10000000
00000000
01000000
00000000
00100000
00010000
00000000
01000000
00001000
00000000
00010000
00000010
00001000
00000000
00000100
00000000
,
00001000
00011000
00000000
00010100
00000000
00001100
00000000
00000000
00000011
00000000
00000000
00000000
00001100
00000000
00000000
00000000
,
01000000
00000100
01000000
00000000
00000000
10001000
00000000
00000000
,
00100000
00000010
00100000
00000000
00000000
00010001
00000000
00010000
,
00000010
00100000
00000010
00000000
00000000
01000100
00000000
00000000
,
00001000
10000000
00001000
00000000
00000000
00100010
00000000
00010000
,
00000100
01000000
00000100
00000000
00000000
00100010
00000000
00000000
,
10000000
00001000
10000000
00000000
00000000
01000100
00000000
00010000
,
00000001
00010000
00001000
00000000
00000000
00010001
00000000
00000000
,
00000010
00001000
00000100
00010000
00010001
00000000
10001000
00000000
,
10000000
00010000
10000000
00000000
01000000
00000000
00100000
00010000
00100000
00010000
01000000
00000000
00100000
00000000
01000000
00000000
,
00010000
10000000
01000000
00000000
00100000
00000000
00001000
00010000
00001000
01000000
00001000
00000000
00010000
00000000
00000010
00000000
,
00001000
00000100
00001000
00000000
00000010
00000000
00010000
00001000
01000000
00001000
00010000
00000000
00000100
00000000
00000010
00000000
,
00000100
00001000
00000001
00000000
00000100
00000000
00000010
00001000
00000100
00001000
00000010
00000000
00000100
00000000
00000001
00000000
,
00001000
00000100
00010000
00000000
00001000
00000000
01000000
00010000
00100000
00010000
01000000
00000000
00100000
00000000
10000000
00000000
,
00010000
01000000
00100000
00000000
10000000
00000000
01000000
00100000
00010000
01000000
00001000
00000000
00010000
00000000
00000010
00000000
,
00001000
00000100
00010000
00000000
00001000
00000000
00010000
00000010
00010000
00001000
00000010
00000000
00000001
00000000
00001000
00000000
,
00000110
00000000
00001001
00000000
00000000
00011000
00000000
00000000
00010001
00000000
00000000
00000000
00001010
00000000
00000000
00000000
,
0MMMM022
00MM0000
00MM0000
0MMMM000
00000000
0MMMM000
00MM0000
00MM0000
,
00MM0000
00000000
MMMM0000
M0000000
M00MM000
MM00M000
0MMM0000
00000000
,
00000000
00000000
0MMMM000
00MM0000
00MM0000
0MMMM000
00000000
00000000
,
M000M000
MM00M000
M0M0M000
M00MM000
M000M000
00000000
00000000
0MMMM000
,
00MM0000
00MM0000
00MM0000
00000000
0M00M000
0M00M000
0MMMM000
0M00M000
,
0M00M000
00000000
0MMMM000
0M000000
0MMMM000
0M000000
0MMMM000
00000000
,
0MMMM000
0M000000
0M0MMM00
0M00M000
00MMM000
00000000
0MMMM000
0M00M000
,
0MMMM000
0MM00000
0M0M0000
0M00M000
00000000
0MMMM000
0M00M000
0M00M000
,
0MMMM000
00000000
0MMMM000
0M00M000
0M00M000
0MMMM000
00000000
M000M000
,
M000M000
0M0M0000
0M0M0000
00M00000
00000000
0MMMM000
0M000000
0MMMM000
,
0M000000
0MMMM000
00000000
00000000
00000000
00000000
0MMMM000
0M00M000
,
0MMMM000
0MM00000
0M0M0000
0M00M000
00000000
0MMMM000
0M00M000
0M00M000
,
0MMMM000
00000000
M000M000
0M0M0000
00M00000
0M0M0000
M000M000
00000000
,
0MMMM000
0M00M000
0M00M000
0MMMM000
00000000
0MMMM000
0M00M000
0MMMM000
,
0MM00000
0M0M0000
0M00M000
00000000
00000000
00000000
00000000
00000000
,
0M000000
0M000000
0M000000
0MMMM000
,
00000000
0MMMM000
00MM0000
00MM0000
,
0MMMM000
00000000
M000M000
M000M000
,
0M0M0000
0M0M0000
00M00000
00000000
,
0MMMM000
0M000000
0MMMM000
0M000000
,
0MMMM000
00000000
0MMMM000
00MM0000
,
00MM0000
00MM0000
00000000
0M00M000
,
0M00M000
0MMMM000
0M00M000
0M00M000
,
00000000
0MMMM000
0M000000
0MMMM000
,
0M000000
0MMMM000
00000000
0MMMM000
,
0M000000
0M000000
0M0MMM00
00MMM000
,
00000000
00MM0000
0M00M000
M0MM0M00
,
M0000M00
00000000
MM0MM000
M0M0M000
,
M000M000
00000000
0MMMM000
0M000000
,
0MMMM000
0M000000
0MMMM000
00000000
,
00000000
00000000
00000000
00000000
,
00000000
00000000
MM00MM00
MM00MM00
00000000
00MM0000
00MM0000
M0000M00
,
0M00M000
00MM0000
00000000
00000000
00000000
00000000
00000000
00000000
,
00000000
00000000
00000000
00000000
,
00000000
00000000
00000000
00000000
00000000
00000000
00000000
00000000
00000033
00000000
00000000
00000000
00000000
00000000
00000000
00001000
00000000
00000001
00000000
00000000
00000000
00000000
00000001
00000000
00000100
00000000
00000010
00000000
00001000
00000000
00000000
00000000
,
00000100
00001000
00000100
00010000
00000000
00010000
00001000
00000000
00010000
01000000
00100000
10000000
01000000
00000000
00100000
00000000
,
00010000
10000000
01000000
00100000
00000000
00100000
00010000
00000000
00100000
01000000
10000000
00010000
00000000
00010000
01000000
00000000
,
00001000
00010000
00001000
00000100
00000001
00000000
00000010
00000000
00000100
00001000
00000001
00000100
00000010
00000000
00000100
00000000
,
00000001
00000100
00001000
00010000
00000000
00010000
00000100
00000000
00010000
00001000
01000000
00100000
00000000
00100000
10000000
00000000
,
01000000
00100000
00010000
00100000
01000000
00000000
00100000
00000000
00001000
00010000
00000100
00000010
00000100
00000000
00001000
00000000
,
00000001
00000100
00000010
00001000
00000000
00001000
00000001
00000000
00000001
00000100
00000010
00010000
00000000
00010000
00001000
00000000
,
00010000
00001000
00100000
00010000
01000000
00000000
00100000
00000000
01000000
00010000
10000000
01000000
00100000
00000000
01000000
00000000
,
00100000
00001000
00010000
00000100
00001000
00000000
00000010
00010000
00001000
00000000
01000000
00000000
00100000
00000000
01000000
00000000
,
00010000
01000000
00100000
00000000
01000000
00000000
00010000
00000000
00100000
01000000
10000000
00000000
01000000
00000000
00100000
00000000
,
00001000
00010000
00000100
00000000
00001000
00000000
00000010
00000000
00000100
00000001
00001000
00000000
00000100
00000000
00000010
00000000
,
00000100
00010000
00001000
00000000
00000100
00000000
00001000
00000000
00010000
00100000
00010000
00000000
00001000
00000000
00100000
00000000
,
01000000
00010000
00001000
00000000
01000000
00000000
00100000
00000000
10000000
01000000
00010000
00000000
00001000
00000000
00000010
00000000
,
00000001
00000100
00000010
00000000
00010000
00000000
00001000
00000000
00000010
00000100
00001000
00000000
00000001
00000100
00000010
00001000
,
00000000
00000100
00010000
00000000
00000010
00001000
00000100
00010000
00001000
00000000
01000000
00000000
00010000
10000000
00100000
01000000
,
00000000
00010000
10000000
00000000
01000000
00100000
00010000
10000000
00000000
01000000
00010000
00000000
00001000
01000000
00001000
00010000
,
00011000
00000000
00010100
00000000
00000100
00000000
00000010
00000000
00000100
00001000
00000100
00000010
00000000
00000001
00000100
00000000
,
00000010
00001000
00000100
00010000
00000000
00000010
00001000
00000000
00000100
00010000
00001000
01000000
00000000
00010000
00100000
00000000
,
01000000
10000000
01000000
00010000
01000000
00000000
00100000
00000000
00010000
01000000
00100000
10000000
00000000
00010000
01000000
00000000
,
00001000
00010000
00000100
00001000
00000000
00000010
00000100
00000000
00000001
00001000
00000100
00010000
00001000
00000000
01000000
00000000
,
00001000
00010000
00001000
01000000
00010000
00000000
00100000
00000000
00001000
00010000
00000100
00001000
00000000
00000010
00000100
00000000
,
00000001
00001000
00000100
00000010
00000000
00000100
00001000
00000000
00000000
00000001
00000100
00000010
00000000
00010000
00001000
00000000
,
00000000
10000000
01000000
00100000
00000000
00001000
00010000
00000000
00000000
00000001
00000100
00000010
00000000
00010000
00001000
00000000
,
00000000
10000000
00100000
01000000
00000000
10010000
00000000
00011000
00000000
00001001
00000000
00000000
00000010
00000000
00001000
00000000
,
00000100
00000010
00000001
00000100
00002002
00000000
00000000
00000000
00000000
00000000
00000000
00000000
00000000
00000000
00000000
00000000
,
00003003
00000000
00000000
00000000
;

//---------------dance-double - M.Emirzian----------------
#NOTES:
     dance-double:
     M.Emirzian:
     Hard:
     9:
     0.726,0.998,0.380,0.040,0.655,466.000,38.000,4.000,12.000,0.000,0.000:
00000000
00000000
00000000
00000000
,
00000000
00000000
00000000
00000000
,
00000000
00000000
00000000
00000000
,
00000000
00000000
00000000
00000000
,
00000000
00010000
10000000
00000000
01000000
00000000
00100000
00010000
00000000
00010000
01000000
00000000
00001000
00000000
00010000
00000100
,
00000000
00000100
00001000
00000000
00000010
00000000
00000100
00000001
00000000
00000001
00000010
00000000
00000100
00000000
00001000
00000001
,
00000000
00000001
00000100
00000000
00000010
00000000
00001000
00000100
00000000
00000100
00010000
00000000
00001000
00000000
00000100
00001000
,
00000000
00001000
00010000
00000000
00100000
00000000
10000000
01000000
00000000
01000000
00100000
00000000
01000000
00000000
10000000
00010000
,
00000000
00010000
01000000
00000000
00100000
00000000
00010000
00001000
00000000
00001000
00000010
00000000
00000100
00000000
00001000
00000001
,
00000000
00000001
00000100
00000000
00000010
00000000
00001000
00000100
00000000
00000100
00000010
00000000
00000001
00000000
00000100
00001000
,
00000000
00001000
00010000
00000000
00000100
00000000
00010000
01000000
00000000
01000000
10000000
00000000
00100000
00000000
01000000
00001000
,
00000000
00001000
00010000
00000000
00100000
00000000
10000000
01000000
00000000
01000000
00100000
00000000
00001000
00000000
00010000
00000000
,
00000100
00000000
00000010
00000000
00000100
00001000
00000000
00000100
00000010
00000000
00000100
00001000
00000000
00000000
00000001
00000000
,
00000100
00000000
00000010
00000000
00001000
00000100
00000000
00001000
00000010
00000000
00001000
00000001
00000000
00000000
00000100
00000000
,
00001000
00000000
00010000
00000000
00001000
01000000
00000000
00001000
00010000
00000000
00001000
00100000
00000000
00000000
00010000
00000000
,
10000000
00000000
01000000
00100000
00000000
00000000
00010000
00000000
10000000
00000000
01000000
00100000
00000000
00000000
00010000
00000000
,
10000000
00000000
01000000
00000000
00100000
00001000
00000000
00100000
01000000
00000000
00100000
00010000
00000000
00000000
00100000
00000000
,
00001000
00000000
00010000
00000000
00001000
01000000
00000000
00001000
00010000
00000000
00001000
00100000
00000000
00000000
00001000
00000000
,
00000100
00000000
00000001
00000000
00000010
00000100
00000000
00000010
00001000
00000000
00000010
00000100
00000000
00000000
00001000
00000000
,
00000010
00000100
00000000
00001001
00000000
00000110
00000000
00000000
00010100
00000000
00000000
00000000
00011000
00000000
00000000
00000000
,
01001000
00000000
00011000
00000000
00000000
10010000
00000000
00000000
,
00011000
00000000
00001001
00000000
00000000
00011000
00000000
10010000
,
00000000
00000000
00011000
00000000
00000000
00001001
00000000
00000000
,
00000000
00000000
10010000
00000000
00000000
00011000
00000000
00001001
,
00000000
00000000
00000110
00000000
00000000
00011000
00000000
00000000
,
01100000
00000000
00011000
00000000
00000000
00000110
00000000
00001001
,
00000000
00000000
00011000
00000000
00000000
10010000
00000000
00000000
,
00100000
10000000
00100000
01000000
10010000
00000000
11000000
00000000
,
00100000
01000000
00010000
00100000
00001000
00010000
00001000
10000000
,
01000000
00100000
00001000
00010000
00000100
00000010
00000100
00010000
,
00000001
00000100
00000001
00010000
00001000
00000100
00000010
00010000
,
00001000
10000000
00100000
10000000
00001000
00010000
00000001
00000100
,
00000001
00010000
00001000
00100000
00010000
01000000
10000000
01000000
,
00001000
00010000
00000001
00000010
00000001
00010000
00001000
00000010
,
00000100
00010000
00001000
10000000
00100000
10000000
00001000
00010000
,
00000100
00000000
00001100
00000000
00000000
00010100
00000000
00000000
00001010
00000000
00000000
00000000
01010000
00000000
00000000
00000000
,
00022000
00000000
00000000
00000000
,
M0000000
00000000
00000000
00000000
,
000000M0
00000000
00000000
00000000
,
00000000
00000000
00000000
00000000
,
0M000000
00000000
00000000
00000000
,
00000000
00000000
00000000
00000000
,
00000000
00000000
00000000
00000000
,
000000M0
00000000
00000000
00000000
,
00000000
00000000
00000000
00000000
,
00000000
00000000
00000000
00000000
,
M0000000
00000000
00000000
00000000
,
00000000
00000000
00000000
00000000
,
00000000
00000000
00000000
00000000
,
00000000
00000000
00000000
00000000
,
0M000000
00000000
00000000
00000000
,
00000000
00000000
00000000
00000000
,
00000000
00000000
00000000
00000000
,
00000000
00000000
00000000
00000000
,
00000000
00000000
00000000
00000000
,
000000M0
00000000
00000000
00000000
,
00000000
00000000
00000000
00000000
,
00000000
00000000
00000000
00000000
,
00000000
00000000
00000000
00000000
,
00000000
00000000
00000000
00000000
,
00000000
00000000
00000000
00000000
,
M0000000
00000000
00000000
00000000
,
00000000
00000000
00000000
00000000
,
000000M0
00000000
00000000
00000000
,
00000000
00000000
00000000
00000000
,
0M000000
00000000
00000000
00000000
,
00000000
00000000
00000000
00000000
,
0M000000
00000000
00000000
00000000
,
000000M0
00000000
00000000
00000000
,
00000000
00000000
00000000
00000000
,
00000000
00000000
00000000
00000000
00000000
00000000
00000000
00000000
00033000
00000000
00000000
00000000
00000000
00000000
00000000
00010000
00000000
00001000
00000000
00000000
00000000
00000000
00001000
00000000
00010000
00000000
00000000
00000000
00100000
00000000
00000000
00000000
,
10000000
00000000
01000000
00100000
00000000
00100000
00010000
00000000
10000000
00000000
00100000
00000000
00010000
00000000
00001000
00000000
,
00000010
00000000
00000100
00001000
00000000
00001000
00000010
00000000
00000100
00000000
00000001
00001000
00000000
00001000
00000100
00000000
,
00000010
00000100
00000010
00000000
00000001
00000000
00000100
00000000
00000010
00001000
00000010
00000000
00010000
00000000
00001000
00000000
,
01000000
00000000
00010000
00100000
00000000
00100000
01000000
00000000
10000000
00000000
01000000
00100000
00000000
00100000
00001000
00000000
,
00010000
00000000
01000000
10000000
00000000
10000000
00010000
00000000
01000000
00000000
00001000
00000000
00000100
00000000
00001000
00000000
,
00010000
00000000
00000100
00000010
00000000
00000010
00000001
00000000
00000010
00000000
00000100
00010000
00000000
00010000
00001000
00000000
,
00000100
00001000
00000100
00000000
00001000
00000000
00010000
00000000
00100000
00010000
00100000
00000000
10000000
00000000
01000000
00000000
,
00100000
00000000
00010000
00000000
10010000
00000000
01000000
00000000
10010000
00000000
01000000
00000000
00010000
00000000
00001000
00000010
,
00000000
00000010
00000100
00000000
00001000
00000000
00000001
00000000
00000100
00000000
00001000
00000000
00010000
00000000
00001000
00000100
,
00000000
00000100
00000010
00000000
00001000
00000000
00000001
00000100
00000000
00000100
00000010
00000000
00001000
00000100
00001000
00000000
,
00000010
00000000
00000100
00000000
00000001
00000010
00000001
00000000
00001000
00000000
00000100
00000000
00010000
00000000
00001000
01000000
,
00000000
01000000
00010000
00000000
00100000
00000000
10000000
00100000
00000000
00100000
00010000
00000000
01000000
00000000
00001000
00000000
,
00100000
01000000
00100000
00000000
00010000
00000000
01000000
00000000
00100000
10000000
00100000
00000000
01000000
00000000
00010000
10000000
,
00000000
10000000
01000000
00000000
00010000
00000000
00001000
00000000
00000010
00000000
00000001
00000000
00001000
00000000
00000010
00000100
,
00000000
00000100
00000001
00000000
00000010
00000000
00000100
00001000
00000000
00001000
00000010
00000000
00010000
00001000
00010000
00000000
,
00011000
00000000
00001000
00000000
01010000
00000000
00010000
00000000
01000000
00000000
00100000
10000000
00000000
10000000
01000000
00000000
,
00010000
00000000
00001000
00010000
00000000
00010000
00100000
00000000
01000000
00000000
00010000
10000000
00000000
10000000
00100000
00000000
,
00010000
00000000
00001000
00000000
00000010
00000000
00000001
00000000
00001000
00000000
00000010
00000100
00000000
00000100
00000001
00000000
,
00000100
00000000
00000010
00001000
00000000
00001000
00000100
00000000
00010000
00001000
00010000
00000000
00000100
00000000
00000010
00000000
,
00000100
00010000
00000100
00000000
00010000
00000000
00001000
00000000
01000000
00000000
00100000
10000000
00000000
10000000
01000000
00000000
,
00100000
00000000
00010000
01000000
00000000
01000000
00100000
00000000
00000000
01000000
00010000
10000000
00000000
01000000
00100000
00000000
,
00000000
00001000
00010000
00000100
00000000
00010000
00001000
00000000
00000000
00000100
00000010
00001000
00000000
00000010
00000100
00000000
,
00000000
00000001
00000010
00000100
00000000
00001000
00000000
00001001
00000000
00000110
00000000
00000000
00001000
00000000
00000010
00000000
,
00010000
00001000
01000000
00001000
00022000
00000000
00000000
00000000
00000000
00000000
00000000
00000000
00000000
00000000
00000000
00000000
,
00033000
00000000
00000000
00000000
;

//---------------dance-single - C. Foy----------------
#NOTES:
     dance-single:
     C. Foy:
     Challenge:
     11:
     0.990,1.000,0.540,0.470,1.000,592.000,54.000,47.000,118.000,0.000,0.000:
0000
0000
0000
0000
,
0000
0000
0000
0000
,
0000
0000
0000
0000
,
0000
0000
0000
0000
,
1000
0000
0100
0000
0020
0000
0000
0000
0001
0030
0010
0000
0100
0000
1000
0000
0100
0000
0010
0000
0002
0000
0000
0000
0010
0003
0100
0000
1000
0000
0010
0000
,
0100
0000
0001
0000
2000
0000
0000
0000
0001
3000
0100
0000
0010
0000
1000
0000
0010
0000
0100
0000
0002
0000
0000
0000
1000
0003
0100
0000
1000
0000
0001
0000
,
1000
0000
0010
0000
2000
0000
0000
0000
0001
3000
0100
0000
0001
0000
1000
0000
0001
0000
0010
0000
0002
0000
0000
0000
1000
0003
0100
0000
0010
0000
0100
0000
,
1000
0000
0100
0000
2000
0000
0000
0000
0001
3000
0100
0000
0010
0000
0100
0000
0001
0000
0010
0000
0002
0000
0000
0000
1000
0003
0010
0000
0100
0000
0010
0000
,
1000
0000
0100
0000
2000
0000
0000
0000
0001
3000
0010
0000
0100
0000
0010
0000
0001
0000
0100
0000
0002
0000
0000
0000
1000
0003
0010
0000
0100
0000
0001
0000
,
0100
0000
0010
0000
2000
0000
0000
0000
0001
3000
0100
0000
0010
0000
1000
0000
0010
0000
0100
0000
0020
0000
0000
0000
1000
0030
0100
0000
0010
0000
0001
0000
,
0010
0000
0100
0000
0020
0000
0000
0000
0001
0030
0010
0000
0100
0000
1000
0000
0100
0000
0010
0000
0200
0000
0000
0000
1000
0300
0010
0000
1000
0000
0100
0000
,
0010
0000
0001
0000
0200
0000
0000
0000
0001
0300
0010
0000
0001
0000
0100
0000
0010
0000
1000
0000
0200
0000
0000
0000
1000
0300
0001
0000
0100
0000
0010
0000
,
1000
0000
0001
0000
0001
0100
0000
0000
1000
0000
0000
0100
0000
0000
MMMM
0000
,
1001
0000
0001
0000
0010
1000
0000
0000
0010
0000
0000
0100
0000
0000
MMMM
0000
,
0011
0000
0001
0000
0100
1000
0000
0000
0100
0000
0000
0010
0000
0000
MMMM
0000
,
0010
1000
0100
0010
0001
0000
0100
0000
0100
0001
0010
0100
1000
0000
0010
0000
,
0100
0000
1000
0000
1000
0100
0000
0000
0001
0000
0000
0010
0000
0000
MMMM
0000
,
1100
0000
0100
0000
0010
1000
0000
0000
0010
0000
0000
0100
0000
0000
MMMM
0000
,
1100
0000
0001
0000
0100
1000
0000
0000
1000
0000
0000
0100
0000
0000
MMMM
0000
,
0000
1001
0000
1100
0000
0101
0000
0000
0010
0100
0000
0000
1001
0000
0000
0001
,
1000
0100
1100
0000
0010
0011
0000
0001
,
0100
0000
0010
0000
0110
0000
0000
0010
1000
0000
1001
0000
0000
0000
1100
0000
,
0000
0010
0110
0000
0001
0101
0000
0010
,
1000
0000
0100
0000
1100
0000
0000
0100
0010
0000
0110
0000
0001
0000
0101
0000
,
0100
0010
0110
0100
0001
1001
0000
0100
,
0001
0000
0010
0000
0110
0000
0000
1000
0001
0000
1001
0000
0100
0000
0101
0000
,
0001
1000
1100
0000
0001
0101
0000
0000
,
0010
1000
0100
0010
0001
0000
0001
0000
0100
0000
0000
0000
1001
0000
0000
0000
,
0100
0000
0000
0000
1001
0000
0000
0010
1000
0000
0000
0000
0100
0000
0000
0000
,
0010
0000
0000
0010
0100
0000
0100
1000
0001
0000
0000
0000
0101
0000
0010
0000
,
1000
0000
0000
0000
1001
0000
0000
0001
0010
0000
0000
0000
0110
0000
0000
0000
,
1100
0000
0000
0100
1000
0000
0000
0010
0100
0000
0000
0001
0010
0000
0010
0001
,
0100
0000
0011
0000
0000
1100
0000
0000
,
0010
0010
1001
0000
0100
1100
0000
0101
,
0000
0000
0110
0000
0000
1001
0000
0000
,
0001
1000
0001
1000
0001
1000
0001
1000
,
0001
0000
0000
0000
0000
0000
0000
0000
0000
0000
0000
0000
0000
0000
0000
0000
0000
0000
0000
0000
0000
0000
0000
0000
0000
0000
0000
1000
0000
0000
0000
0000
0000
0000
0000
0000
0000
0000
0000
0000
0000
0000
0000
0000
0000
0000
0000
0000
0M00
0000
0000
0000
0000
0000
0001
0000
0000
0000
0000
0000
0000
0000
0000
0000
0000
0000
0000
0000
0000
0000
0000
0000
0000
0000
0000
0000
0000
0000
0000
0000
0000
0000
1000
0000
0000
0000
0000
0000
0000
0000
0000
0000
0000
0000
0000
0000
0000
0000
0000
0000
0000
0000
0000
0000
0000
0000
0000
0000
0000
0001
0000
0000
0000
0000
0000
0000
0000
0000
0000
0000
0000
0000
0000
0000
0000
0000
0000
0000
0000
0000
0000
0000
0000
0000
0000
0000
1000
0000
0000
0000
0000
0000
0000
0000
00M0
0000
0000
0000
0000
0000
0000
0000
0000
0000
0000
0000
0000
0000
0000
0000
0000
0000
0000
0000
0000
0000
0000
0001
0000
0000
0000
0000
0000
0000
0000
0000
0000
0000
0000
0000
0000
0000
0000
0000
0000
0000
0000
0000
0000
0000
0000
0000
,
0000
0000
0000
0000
0000
0000
0000
1000
0000
0000
0000
0000
0000
0000
0000
0000
0000
0000
0000
0000
0000
0000
0000
0000
0000
0000
0000
0000
0000
0000
0000
0000
0000
0000
0000
0000
0000
0000
0000
0000
0000
0001
0000
0000
0000
0000
0000
0000
0M00
0000
0000
0000
0000
0000
0000
0000
0000
0000
0000
0000
0000
0000
0000
0000
0000
0000
0000
0000
0000
0000
0000
0000
0000
0000
0000
0000
0000
0000
1000
0000
0000
0000
0000
0000
0000
0000
0000
0000
0000
0000
0000
0000
0000
0000
0000
0000
0000
0000
0000
0000
0000
0000
0000
0000
0000
0000
0000
0000
0000
0000
0000
0000
0000
0000
0000
0000
0000
0001
0000
0000
0000
0000
0000
0000
0000
0000
0000
0000
0000
0000
0000
0000
0000
0000
0000
0000
0000
0000
0000
0000
0000
0000
0000
0000
00M0
0000
0000
0000
0000
0000
0000
0000
0000
0000
0000
0000
1000
0000
0000
0000
0000
0000
0000
0000
0000
0000
0000
0000
0000
0000
0000
0000
0000
0000
0000
0000
0000
0000
0000
0000
0000
0000
0000
0000
0000
0000
0000
0000
0000
0000
0000
0000
,
0000
0000
0001
0000
0000
0000
0000
0000
0000
0000
0000
0000
0000
0000
0000
0000
0000
0000
0000
0000
0000
0000
0000
0000
0000
0000
0000
0000
0000
0000
0000
0000
0000
0000
0000
0000
0000
0000
0000
0000
0000
0000
0000
0000
0000
0000
1000
0000
00M0
0000
0000
0000
0000
0000
0000
0000
0000
0000
0000
0000
0000
0000
0000
0000
0000
0000
0000
0000
0000
0000
0000
0000
0000
0000
0000
0000
0000
0000
0000
0000
0000
0000
0000
0000
0000
0000
0000
0001
0000
0000
0000
0000
0000
0000
0000
0000
0000
0000
0000
0000
0000
0000
0000
0000
0000
0000
0000
0000
0000
0000
0000
0000
0000
0000
0000
0000
0000
0000
0000
0000
0000
0000
0000
0000
0000
0000
0000
0000
0000
0000
0000
1000
0000
0000
0000
0000
0000
0000
0000
0000
0000
0000
0000
0000
0M00
0000
0000
0000
0000
0000
0000
0000
0000
0000
0000
0000
0000
0000
0000
0000
0000
0000
0000
0000
0000
0000
0000
0000
0000
0000
0000
0000
0000
0000
0000
0001
0000
0000
0000
0000
0000
0000
0000
0000
0000
0000
0000
0000
0000
0000
0000
0000
,
0000
0000
0000
0000
0000
0000
0000
0000
0000
0000
0000
0000
0000
0000
0000
0000
0000
0000
0000
0000
0000
0000
0000
0000
0000
0000
0000
0000
0000
1000
0000
0000
0000
0000
0000
0000
0000
0000
0000
0000
0000
0000
0000
0000
0000
0000
0000
0000
00M0
0000
0000
0000
0000
0000
0000
0000
0000
0000
0000
0000
0000
0000
0000
0000
0000
0000
0000
0000
0000
0000
0000
0000
0000
0000
0000
0000
0000
0001
0000
0000
0000
0000
0000
0000
0000
0000
0000
0000
0000
0000
0000
0000
0000
0000
0000
0000
0000
0000
0000
0000
0000
0000
0000
0000
0000
0000
0000
0000
0000
0000
0000
0000
0000
0000
0000
0000
0000
0000
0000
0000
0000
0000
0000
0000
0000
0000
0000
0000
1000
0000
0000
0000
0000
0000
0000
0000
0000
0000
0000
0000
0000
0000
0000
0000
0M00
0000
0000
0000
0000
0000
0000
0000
0000
0000
0000
0000
0000
0000
0000
0000
0000
0000
0000
0000
0000
0000
0000
0000
0000
0000
0000
0000
0000
0000
0000
0000
0000
0000
0000
0000
0001
0000
0000
0000
0000
0000
0000
0000
0000
0000
0000
0000
,
0000
0000
0000
0000
0000
0000
0000
0000
0000
0000
0000
0000
0000
0000
0000
0000
0000
0000
0000
0000
0000
0000
0000
0000
0000
0000
0000
0000
0000
0000
0000
0000
0000
0000
0000
0000
0000
0000
0000
0000
0000
0000
0000
1000
0000
0000
0000
0000
00M0
0000
0000
0000
0000
0000
0000
0000
0000
0000
0000
0000
0000
0000
0000
0000
0000
0000
0000
0000
0000
0000
0000
0000
0000
0000
0000
0000
0000
0000
0000
0000
0000
0000
0000
0000
0000
0000
0000
0000
0000
0000
0000
0000
0000
0000
0000
0000
0000
0000
0000
0001
0000
0000
0000
0000
0000
0000
0000
0000
0000
0000
0000
0000
0000
0000
0000
0000
0000
0000
0000
0000
0000
0000
0000
0000
0000
0000
0000
0000
0000
0000
0000
0000
0000
0000
0000
0000
0000
0000
0000
0000
0000
0000
0000
0000
0M00
0000
0000
0000
0000
0000
0000
0000
0000
0000
0000
0000
0000
0000
0000
0000
0000
1000
0000
0000
0000
0000
0000
0000
0000
0000
0000
0000
0000
0000
0000
0000
0000
0000
0000
0000
0000
0000
0000
0000
0000
0000
0000
0000
0000
0000
0000
0000
,
0000
0000
0000
0000
0000
0000
0000
0000
0000
0000
0000
0000
0000
0000
0000
0000
0000
0000
0000
0000
0000
0000
0000
0000
0000
0000
0000
0000
0000
0000
0000
0000
0000
0000
0001
0000
0000
0000
0000
0000
0000
0000
0000
0000
0000
0000
0000
0000
00M0
0000
0000
0000
0000
0000
0000
0000
0000
0000
0000
0000
0000
0000
0000
0000
0000
0000
0000
0000
0000
0000
0000
0000
0000
0000
0000
0000
0000
0000
0000
0000
0000
0000
0000
0000
0000
0000
0000
0000
0000
0000
0000
0000
0000
0000
0000
0000
0000
0000
0000
0000
0000
0000
1000
0000
0000
0000
0000
0000
0000
0000
0000
0000
0000
0000
0000
0000
0000
0000
0000
0000
0000
0000
0000
0000
0000
0000
0000
0000
0000
0000
0000
0000
0000
0000
0000
0000
0000
0000
0000
0000
0000
0000
0000
0000
0M00
0000
0000
0000
0000
0000
0000
0000
0000
0000
0000
0000
0000
0000
0000
0000
0000
0000
0000
0000
0000
0000
0000
0000
0000
0000
0000
0000
0000
0000
0000
0000
0001
0000
0000
0000
0000
0000
0000
0000
0000
0000
0000
0000
0000
0000
0000
0000
,
0000
0000
0000
0000
0000
0000
0000
0000
0000
0000
0000
0000
0000
0000
0000
0000
0000
0000
0000
0000
0000
0000
0000
0000
0000
0000
0000
0000
0000
0000
0000
0000
0000
0000
0000
0000
0000
0000
0000
0000
0000
0000
0000
0000
0000
0000
0000
0000
00M0
0000
0000
0000
0000
0000
0000
0000
0000
0000
0000
0000
0000
0000
0000
0000
0000
1000
0000
0000
0000
0000
0000
0000
0000
0000
0000
0000
0000
0000
0000
0000
0000
0000
0000
0000
0000
0000
0000
0000
0000
0000
0000
0000
0000
0000
0000
0000
0000
0000
0000
0000
0000
0000
0000
0000
0000
0000
0000
0000
0000
0000
0000
0000
0000
0000
0000
0000
0000
0000
0000
0000
0000
0000
0000
0000
0000
0000
0000
0000
0000
0000
0000
0000
0000
0000
0000
0000
0000
0000
0000
0000
0000
0000
0000
0000
0M00
0000
0000
0000
0001
0000
0000
0000
0000
0000
0000
0000
0000
0000
0000
0000
0000
0000
0000
0000
0000
0000
0000
0000
0000
0000
0000
0000
0000
0000
0000
0000
0000
0000
0000
0000
0000
0000
0000
0000
0000
0000
0000
0000
0000
0000
0000
0000
,
0000
0000
0000
0000
0000
0000
0000
0000
0000
0000
0000
0000
0000
0000
0000
0000
0000
0000
0000
0000
0000
0000
0000
0000
0000
0000
0000
0000
0000
0000
0000
0000
0000
0000
0000
0000
0000
0000
0000
0000
0000
1000
0000
0000
0000
0000
0000
0000
00M0
0000
0000
0000
0000
0000
0000
0000
0000
0000
0000
0000
0000
0000
0000
0000
0000
0000
0000
0000
0000
0000
0000
0000
0000
0000
0000
0000
0000
0000
0000
0000
0000
0000
0000
0000
0000
0000
0000
0000
0000
0000
0000
0000
0000
0000
0000
0000
0000
0000
0000
0000
0000
0000
0000
0000
0000
0000
0000
0000
0000
0000
0000
0000
0000
0000
0000
0000
0000
0000
0000
0000
0000
0000
0000
0000
0000
0000
0000
0000
0000
0001
0000
0000
0000
0000
0000
0000
0000
0000
0000
0000
0000
0000
0000
0000
0M00
0000
0000
0000
0000
0000
0000
0000
0000
0000
0000
0000
0000
0000
0000
0000
0000
0000
0000
0000
0000
0000
0000
0000
0000
0000
0000
0000
0000
0000
0000
0000
0000
0000
0000
0000
0000
0000
0000
0000
0000
0000
0000
0000
0000
0000
0000
0000
,
0000
0000
0000
0000
0000
0000
0000
0000
0000
0000
0000
0000
0000
0000
0000
0000
0000
0000
0000
0000
0000
0000
0000
0000
0000
0000
0000
0000
0000
0000
1000
0000
0000
0000
0000
0000
0000
0000
0000
0000
0000
0000
0000
0000
0000
0000
0000
0000
00M0
0000
0000
0000
0000
0000
0000
0000
0000
0000
0000
0000
0000
0000
0000
0000
0000
0000
0000
0000
0000
0000
0000
0000
0000
0000
0000
0000
0000
0000
0000
0000
0000
0000
0000
0000
0000
0000
0000
0000
0000
0000
0000
0000
0000
0000
0000
0000
0000
0000
0000
0000
0000
0000
0000
0000
0000
0000
0000
0000
0000
0000
0000
0000
0000
0000
0000
0000
0000
0000
0000
0000
0000
0000
0000
0000
0000
0000
0000
0000
0000
0000
0000
0000
0000
0000
0001
0000
0000
0000
0000
0000
0000
0000
0000
0000
0M00
0000
0000
0000
0000
0000
0000
0000
0000
0000
0000
0000
0000
0000
0000
0000
0000
0000
0000
0000
0000
0000
0000
0000
0000
0000
0000
0000
0000
0000
0000
0000
0000
0000
0000
0000
0000
0000
0000
0000
0000
0000
0000
0000
0000
0000
0000
0000
,
0000
0000
0000
0000
0000
0000
0000
0000
0000
0000
0000
0000
0000
0000
0000
0000
0000
0000
0000
0000
0000
0000
0000
0000
0000
0000
0000
0000
0000
0000
0000
0000
0000
0000
0000
0000
0000
0000
0000
0000
0000
0000
0000
0000
0000
0000
0000
0000
00M0
0000
1000
0000
0000
0000
0000
0000
0000
0000
0000
0000
0000
0000
0000
0000
0000
0000
0000
0000
0000
0000
0000
0000
0000
0000
0000
0000
0000
0000
0000
0000
0000
0000
0000
0000
0000
0000
0000
0000
0000
0000
0000
0000
0000
0000
0000
0000
0000
0000
0000
0000
0000
0000
0000
0000
0000
0000
0000
0000
0000
0000
0000
0000
0000
0000
0000
0000
0000
0000
0000
0000
0000
0000
0000
0000
0000
0000
0000
0000
0000
0000
0000
0000
0000
0000
0000
0000
0000
0000
0000
0000
0000
0000
0000
0000
0M00
0000
0000
0000
0000
0000
0000
0000
0000
0000
0000
0000
0000
0000
0000
0000
0000
0000
0001
0000
0000
0000
0000
0000
0000
0000
0000
0000
0000
0000
0000
0000
0000
0000
0000
0000
0000
0000
0000
0000
0000
0000
0000
0000
0000
0000
0000
0000
,
0000
0000
0000
0000
0000
0000
0000
0000
0000
0000
0000
0000
0000
0000
0000
0000
00M0
0000
0000
0000
0000
0000
0000
0000
0000
0000
0000
0000
0000
0000
0000
1000
0000
0000
0000
0000
0000
0000
0000
0000
0000
0000
0000
0000
0000
0000
0000
0000
0M00
0000
0000
0000
0000
0000
0000
0000
0000
0000
0000
0000
0000
0000
0000
0000
,
0000
0000
0000
0000
0000
0000
0000
0000
0000
0000
0000
0001
0000
0000
0000
0000
00M0
0000
0000
0000
0000
0000
0000
0000
0000
0000
0000
0000
0000
0000
0000
0000
0M00
0000
0000
0000
0000
0000
0000
0000
0000
0000
0000
0000
0000
0000
0000
0000
0000
0000
0000
0000
0000
0000
0000
0000
0000
0000
0000
1000
0000
0000
0000
0000
,
00M0
0000
0M00
0001
,
00M0
0000
0000
0000
0000
0000
0000
0000
0000
0000
0000
0000
0000
0000
0000
0000
0000
0000
0000
0000
0000
0000
0000
0000
0000
0000
0000
0000
0000
0000
0000
0000
0M00
0000
0000
0000
0000
1000
0000
0000
0000
0000
0000
0000
0000
0000
0000
0000
0000
0000
0000
0000
0000
0000
0000
0000
0000
0000
0000
0000
0000
0000
0000
0000
,
00M0
0000
0000
0000
0000
0001
0M00
0000
0000
0000
0000
0000
,
00M0
1000
0M00
0000
,
00M0
0001
0000
0000
0000
0000
0M00
0000
0000
0000
0000
1000
,
00M0
0000
0M00
0001
,
00M0
0000
0000
0000
0000
0000
0M00
1000
0000
0000
0000
0000
,
00M0
0000
0000
0000
0000
0001
0M00
0000
0000
0000
0000
0000
,
00M0
1000
0M00
0000
,
00M0
0001
0000
0000
0000
0000
0M00
0000
0000
0000
0000
1000
,
00M0
0000
0000
0000
0000
0000
0000
0000
0000
0000
0000
0000
0000
0000
0000
0000
0000
0000
0000
0000
0000
0000
0000
0000
0000
0000
0000
0000
0000
0000
0000
0000
0000
0000
0000
0000
0000
0000
0000
0000
0000
0000
0000
0000
0000
0000
0000
0000
0000
0000
0000
0000
0000
0000
0000
0000
0000
0000
0000
0000
0000
0000
0000
0000
0000
0000
0000
0000
0000
0000
0000
0000
0000
0000
0000
0000
0000
0000
0000
0000
0000
0000
0000
0000
0000
0000
0000
0000
0000
0000
0000
0000
0000
0000
0000
0000
0M00
0000
0000
0000
0000
0000
0000
0000
0000
0000
0000
0000
0000
0000
0000
0000
0000
0000
0000
0000
0000
0000
0000
0000
0000
0000
0000
0000
0000
0000
0000
0000
0000
0000
0000
0000
0000
0000
0000
0000
0000
0000
0000
0000
0000
0000
0000
0000
0000
0001
0000
0000
0000
0000
0000
0000
0000
0000
0000
0000
0000
0000
0000
0000
0000
0000
0000
0000
0000
0000
0000
0000
0000
0000
0000
0000
0000
0000
0000
0000
0000
0000
0000
0000
0000
0000
0000
0000
0000
0000
0000
0000
0000
0000
0000
0000
,
00M0
0000
0000
0000
0000
0000
0000
0000
0000
0000
0000
0000
0000
0000
0000
0000
0000
0000
0000
0000
0000
0000
0000
0000
0000
0000
0000
0000
0000
0000
0000
0000
0000
0000
0000
0000
0000
0000
0000
0000
0000
0000
0000
0000
0000
0000
0000
0000
0000
0000
0000
0000
0000
0000
0000
0000
0000
0000
0000
0000
0000
0000
0000
0000
0000
0000
0000
0000
0000
0000
0000
0000
0000
0000
0000
0000
0000
0000
0000
0000
0000
0000
0000
0000
0000
0000
0000
0000
0000
0000
0000
0000
0000
0000
0000
0000
0M00
0000
0000
0000
0000
0000
0000
0000
0000
0000
0000
0000
0000
0000
0000
0000
0000
0000
0000
1000
0000
0000
0000
0000
0000
0000
0000
0000
0000
0000
0000
0000
0000
0000
0000
0000
0000
0000
0000
0000
0000
0000
0000
0000
0000
0000
0000
0000
0000
0000
0000
0000
0000
0000
0000
0000
0000
0000
0000
0000
0000
0000
0000
0000
0000
0000
0000
0000
0000
0000
0000
0000
0000
0000
0000
0000
0000
0000
0000
0000
0000
0000
0000
0000
0000
0000
0000
0000
0000
0000
0000
0000
0000
0000
0000
0000
,
00M0
0000
0000
0000
0000
0000
0000
0000
0000
0000
0000
0001
0M00
0000
0000
0000
0000
0000
0000
0000
0000
0000
0000
0000
,
0MM0
0000
0000
0000
0000
0000
0000
0000
0000
0000
0000
0000
0000
0000
0000
0000
0000
0000
0000
0000
0000
0000
0000
0000
0000
0000
0000
0000
0000
0000
0000
0000
0000
0000
0000
0000
0000
0000
0000
0000
0000
0000
0000
0000
0000
0000
0000
0000
0000
0000
0000
0000
0000
0000
0000
0000
0000
0000
0000
0000
0000
0000
0000
0000
0000
0000
0000
0000
0000
0000
0000
0000
0000
1000
0000
0000
0000
0000
0000
0000
0000
0000
0000
0000
0000
0000
0000
0000
0000
0000
0000
0000
0000
0000
0000
0000
0MM0
0000
0000
0000
0000
0000
0000
0000
0000
0000
0000
0000
0000
0000
0000
0000
0000
0000
0000
0000
0000
0000
0000
0000
0000
0000
0000
0000
0000
0000
0000
0000
0000
0000
0000
0000
0000
0000
0000
0000
0000
0000
0000
0000
0000
0000
0000
0000
0000
0000
0000
0000
0000
0000
0000
0000
0000
0000
0000
0000
0000
0000
0000
0000
0000
0000
0000
0000
0000
0000
0000
0000
0000
0000
0000
0000
0000
0000
0000
0000
0000
0000
0000
0000
0000
0000
0000
0000
0000
0000
0000
0000
0000
0000
0000
0000
,
0MM0
0000
0000
0000
0000
0000
0000
0000
0000
0000
0000
0000
0000
0000
0000
0000
0000
0000
0000
0000
0000
0000
0000
0000
0000
0000
0000
0000
0000
0000
0000
0000
0000
0000
0000
0000
0000
0000
0000
0000
0000
0000
0000
0000
0000
0000
0000
0000
0000
0000
0000
0000
0000
0000
0000
0000
0000
0000
0000
0000
0000
0000
0000
0000
0000
0000
0000
0000
0000
0000
0000
0000
0000
0001
0000
0000
0000
0000
0000
0000
0000
0000
0000
0000
0000
0000
0000
0000
0000
0000
0000
0000
0000
0000
0000
0000
0MM0
0000
0000
0000
0000
0000
0000
0000
0000
0000
0000
0000
0000
0000
0000
0000
0000
0000
0000
0000
0000
0000
0000
0000
0000
0000
0000
0000
0000
0000
0000
0000
0000
0000
0000
0000
0000
0000
0000
0000
0000
0000
0000
0000
0000
0000
0000
0000
0000
0000
0000
0000
0000
0000
0000
0000
0000
0000
0000
0000
0000
0000
0000
0000
0000
0000
0000
0000
0000
0000
0000
0000
0000
0000
0000
0000
0000
0000
0000
0000
0000
0000
0000
0000
0000
0000
0000
0000
0000
0000
0000
0000
0000
0000
0000
0000
,
0MM0
0000
0000
0000
0000
0000
0000
0000
0000
0000
0000
0000
0000
0000
0000
0000
0000
0000
0000
0000
0000
0000
0000
0000
0000
0000
0000
0000
0000
0000
0000
0000
0000
0000
0000
0000
0000
0000
0000
0000
0000
0000
0000
0000
0000
0000
0000
0000
0000
0000
0000
0000
0000
0000
0000
0000
0000
0000
0000
0000
0000
0000
0000
0000
0000
0000
0000
0000
0000
0000
0000
0000
0000
1000
0000
0000
0000
0000
0000
0000
0000
0000
0000
0000
0000
0000
0000
0000
0000
0000
0000
0000
0000
0000
0000
0000
0MM0
0000
0000
0000
0000
0000
0000
0000
0000
0000
0000
0000
0000
0000
0000
0000
0000
0000
0000
0000
0000
0000
0000
0000
0000
0000
0000
0000
0000
0000
0000
0000
0000
0000
0000
0000
0000
0000
0000
0000
0000
0000
0000
0000
0000
0000
0000
0000
0000
0000
0000
0000
0000
0000
0000
0000
0000
0000
0000
0000
0000
0000
0000
0000
0000
0000
0000
0000
0000
0000
0000
0000
0000
0000
0000
0000
0000
0000
0000
0000
0000
0000
0000
0000
0000
0000
0000
0000
0000
0000
0000
0000
0000
0000
0000
0000
,
0MM0
0000
0000
0000
0000
0000
0000
0000
0000
0000
0000
0000
0000
0000
0000
0000
0000
0000
0000
0000
0000
0000
0000
0000
0000
0000
0000
0000
0000
0000
0000
0000
0000
0000
0000
0000
0000
0000
0000
0000
0000
0000
0000
0000
0000
0000
0000
0000
0000
0000
0000
0000
0000
0000
0000
0000
0000
0000
0000
0000
0000
0001
0000
0000
0000
0000
0000
0000
0000
0000
0000
0000
0000
0000
0000
0000
0000
0000
0000
0000
0000
0000
0000
0000
0000
0000
0000
0000
0000
0000
0000
0000
0000
0000
0000
0000
0MM0
0000
0000
0000
0000
0000
0000
0000
0000
0000
0000
0000
0000
0000
0000
0000
0000
0000
0000
0000
0000
0000
0000
0000
0000
0000
0000
0000
0000
0000
0000
0000
0000
0000
0000
0000
0000
0000
0000
0000
0000
0000
0000
0000
0000
0000
0000
0000
0000
0000
0000
0000
0000
0000
0000
0000
0000
0000
0000
0000
0000
0000
0000
0000
0000
0000
0000
0000
0000
0000
0000
0000
0000
0000
0000
0000
0000
0000
0000
0000
0000
0000
0000
0000
0000
0000
0000
0000
0000
0000
0000
0000
0000
0000
0000
0000
,
0MM0
0000
0000
0000
0000
0000
0000
0000
0000
0000
0000
0000
0000
0000
0000
0000
0000
0000
0000
0000
0000
0000
0000
0000
0000
0000
0000
0000
0000
0000
0000
1000
0000
0000
0000
0000
0000
0000
0000
0000
0000
0000
0000
0000
0000
0000
0000
0000
0000
0000
0000
0000
0000
0000
0000
0000
0000
0000
0000
0000
0000
0000
0000
0000
0000
0000
0000
0000
0000
0000
0000
0000
0000
0000
0000
0000
0000
0000
0000
0000
0000
0000
0000
0000
0000
0000
0000
0000
0000
0000
0000
0000
0000
0000
0000
0000
0MM0
0000
0000
0000
0000
0000
0000
0000
0000
0000
0000
0000
0000
0000
0000
0000
0000
0000
0000
0000
0000
0000
0000
0000
0000
0000
0000
0000
0000
0000
0000
0000
0000
0000
0000
0000
0000
0000
0000
0000
0000
0000
0000
0000
0000
0000
0000
0000
0000
0000
0000
0000
0000
0000
0000
0000
0000
0000
0000
0000
0000
0000
0000
0000
0000
0000
0000
0000
0000
0000
0000
0000
0000
0000
0000
0000
0000
0000
0000
0000
0000
0000
0000
0000
0000
0000
0000
0000
0000
0000
0000
0000
0000
0000
0000
0000
,
0MM0
0001
0000
0000
0000
0000
0000
0000
0000
0000
0000
0000
0000
0000
0000
0000
0000
0000
0000
0000
0000
0000
0000
0000
0000
0000
0000
0000
0000
0000
0000
0000
0000
0000
0000
0000
0000
0000
0000
0000
0000
0000
0000
0000
0000
0000
0000
0000
0000
0000
0000
0000
0000
0000
0000
0000
0000
0000
0000
0000
0000
0000
0000
0000
0000
0000
0000
0000
0000
0000
0000
0000
0000
0000
0000
0000
0000
0000
0000
0000
0000
0000
0000
0000
0000
0000
0000
0000
0000
0000
0000
0000
0000
0000
0000
0000
0MM0
0000
0000
0000
0000
0000
0000
0000
0000
0000
0000
0000
0000
0000
0000
0000
0000
0000
0000
0000
0000
0000
0000
0000
0000
0000
0000
0000
0000
0000
0000
0000
0000
0000
0000
0000
0000
0000
0000
0000
0000
0000
0000
0000
0000
0000
0000
0000
0000
0000
0000
0000
0000
0000
0000
0000
0000
0000
0000
0000
1000
0000
0000
0000
0000
0000
0000
0000
0000
0000
0000
0000
0000
0000
0000
0000
0000
0000
0000
0000
0000
0000
0000
0000
0000
0000
0000
0000
0000
0000
0000
0000
0000
0000
0000
0000
,
0MM0
0000
0000
0000
0000
0000
0000
0000
0000
0000
0000
0000
0000
0000
0000
0000
00M0
0001
0000
0000
0000
0000
0000
0000
0000
0000
0000
0000
0000
0000
0000
0000
,
0M00
0000
0000
0000
0000
0000
0000
0000
0000
0000
0000
0000
0000
0000
0000
0000
0000
0000
0000
0000
0000
0000
0000
0000
0000
0000
0000
0000
0000
0000
0000
0000
1000
0000
0000
0000
0000
0000
0000
0000
0000
0000
0000
0000
0000
0000
0000
0000
0000
0000
0000
0000
0000
0000
0000
0000
0000
0000
0000
0000
0000
0000
0000
0000
0000
0000
0000
0000
0000
0000
0000
0000
0000
0000
0000
0000
0000
0000
0000
0000
0000
0000
0000
0000
0000
0000
0000
0000
0000
0000
0000
0000
0000
0000
0000
0000
00M0
0000
0000
0000
0000
0000
0000
0000
0000
0000
0000
0000
0000
0000
0000
0000
0000
0000
0000
0000
0000
0000
0000
0000
0000
0000
0000
0000
0000
0000
0000
0001
0000
0000
0000
0000
0000
0000
0000
0000
0000
0000
0000
0000
0000
0000
0000
0000
0000
0000
0000
0000
0000
0000
0000
0000
0000
0000
0000
0000
0000
0000
0000
0000
0000
0000
0000
0000
0000
0000
0000
0000
0000
0000
0000
0000
0000
0000
0000
0000
0000
0000
0000
0000
0000
0000
0000
0000
0000
0000
0000
0000
0000
0000
0000
0000
,
0M00
0000
0000
0000
0000
0000
0000
0000
0000
0000
0000
0000
0000
0000
0000
0000
0000
0000
0000
1000
0000
0000
0000
0000
0000
0000
0000
0000
0000
0000
0000
0000
0000
0000
0000
0000
0000
0000
0000
0000
0000
0000
0000
0000
0000
0000
0000
0000
0000
0000
0000
0000
0000
0000
0000
0000
0000
0000
0000
0000
0000
0000
0000
0000
0000
0000
0000
0000
0000
0000
0000
0000
0000
0000
0000
0000
0000
0000
0000
0000
0000
0000
0000
0000
0000
0000
0000
0000
0000
0000
0000
0000
0000
0000
0000
0000
00M0
0001
0000
0000
0000
0000
0000
0000
0000
0000
0000
0000
0000
0000
0000
0000
0000
0000
0000
0000
0000
0000
0000
0000
0000
0000
0000
0000
0000
0000
0000
0000
0000
0000
0000
0000
0000
0000
0000
0000
0000
0000
0000
0000
0000
0000
0000
0000
0000
0000
0000
0000
0000
0000
0000
0000
0000
0000
0000
0000
0000
0000
0000
0000
0000
1000
0000
0000
0000
0000
0000
0000
0000
0000
0000
0000
0000
0000
0000
0000
0000
0000
0000
0000
0000
0000
0000
0000
0000
0000
0000
0000
0000
0000
0000
0000
,
0M00
0000
0000
0000
0000
0000
0000
0000
0000
0000
0000
0000
0000
0000
0000
0000
0000
0000
0000
0001
0000
0000
0000
0000
0000
0000
0000
0000
0000
0000
0000
0000
0000
0000
0000
0000
0000
0000
0000
0000
0000
0000
0000
0000
0000
0000
0000
0000
0MM0
0000
0000
0000
0000
0000
0000
0000
0000
0000
0000
0000
0000
0000
0000
0000
0000
0000
0000
0000
0000
0000
0000
0000
0000
0000
0000
0000
0000
0000
0000
0000
0000
0000
0000
0000
0000
0000
0000
0000
0000
0000
0000
0000
0000
0000
0000
0000
0000
0000
0000
0000
0000
0000
0000
0000
0000
0000
0000
0000
0000
0000
0000
0000
0000
0000
0000
0000
0000
0000
0000
0000
0000
0000
0000
0000
0000
0000
0000
0000
0000
0000
0000
0000
0000
0000
0000
0000
0000
0000
0000
0000
0000
0000
0000
0000
1MM1
0000
0000
0000
0000
0000
0000
0000
0000
0000
0000
0000
0000
0000
0000
0000
0000
0000
0000
0000
0000
0000
0000
0000
0000
0000
0000
0000
0000
0000
0000
0000
0000
0000
0000
0000
0000
0000
0000
0000
0000
0000
0000
0000
0000
0000
0000
0000
,
M11M
0000
0010
1000
0100
0010
0200
0000
0010
0300
0010
0000
0010
0000
0000
0000
,
M1M1
0000
1000
0010
1000
0100
0020
0000
0100
0030
0100
0000
0100
0000
0000
0000
,
1M1M
0000
1000
0100
1000
0010
0200
0000
0010
0300
0010
0000
0010
0000
0000
0000
,
M1M1
0000
0100
0001
0010
0100
0020
0000
0100
0030
0100
0000
0100
0000
0000
0000
,
0000
0000
0000
0000
1000
0100
0020
0000
0000
0030
0000
0000
0010
1000
0000
0000
,
1000
0000
0010
0000
0000
0000
0000
0000
0010
0000
0001
0000
0200
0000
0000
0000
0010
0300
0000
0000
0010
0000
0000
0000
1000
0000
0100
0000
0000
0000
0000
0000
,
1001
0000
0000
0000
0100
0001
0020
0000
0001
0030
0000
0000
0101
0000
0000
0000
,
0110
0000
0000
0000
0000
0000
0000
0000
0000
0000
0000
0000
0000
0000
0000
0000
1002
0003
0000
0000
0000
0000
0000
0000
1000
0000
0000
0000
0001
0000
0000
0000
1000
0000
0000
0000
0000
0000
0000
0000
0000
0000
0000
0000
0000
0000
0000
0000
1001
0000
0000
0000
0000
0000
0000
0000
1000
0000
0000
0000
0001
0000
0000
0000
,
0100
0000
0010
0000
2000
0000
0000
0000
0001
3000
1000
0000
0010
0000
0100
0000
0010
0000
1000
0000
0001
0000
0000
0000
0010
0000
0000
0000
0100
0000
0010
0000
,
0001
0000
0010
0000
0200
0000
0000
0000
0010
0300
0100
0000
1000
0000
0001
0000
0100
0000
0010
0000
1000
0000
0000
0000
0100
0000
0000
0000
0010
0000
0100
0000
,
0010
0000
0001
0000
2000
0000
0000
0000
0010
3000
1000
0000
0010
0000
0100
0000
0001
0000
0010
0000
0001
0000
0000
0000
0100
0000
0010
0000
1000
0000
0010
0000
,
0100
0000
0001
0000
0200
0000
0000
0000
0010
0300
0100
0000
0001
0000
0100
0000
0001
0000
1000
0000
0100
0000
0000
0000
0001
0000
0000
0000
0100
0000
0010
0000
,
0100
0000
1000
0000
0002
0000
0000
0000
0100
0003
0001
0000
0100
0000
0010
0000
1000
0000
0010
0000
1000
0000
0000
0000
0100
0000
0000
0000
0001
0000
0100
0000
,
0010
0000
0100
0000
2000
0000
0000
0000
0001
3000
1000
0000
0001
0000
1000
0000
0100
0000
0010
0000
0100
0000
0000
0000
0100
0000
0000
0000
0010
0000
0100
0000
,
0010
0000
0001
0000
0020
0000
0000
0000
0001
0030
0010
0000
0001
0000
1000
0000
0100
0000
1000
0000
0020
0000
0000
0000
0130
0000
0000
0000
0000
0000
0000
0000
,
0120
0030
0000
0000
0000
0000
0000
0000
0100
0000
0000
0000
0010
0000
0000
0000
0100
0000
0000
0000
0000
0000
0000
0000
0000
0000
0000
0000
0000
0000
0000
0000
0010
0000
0000
0000
0000
0000
0000
0000
0100
0000
0000
0000
0010
0000
0000
0000
0100
0000
0000
0000
0010
0000
0000
0000
2000
0000
0000
0000
0000
0000
0000
0000
,
0100
3000
1000
0000
0100
0000
0010
0000
0100
0000
1000
0000
0002
0000
0000
0000
0100
0000
0003
0000
0100
0000
0001
0000
0010
0000
0001
0000
0020
0000
0000
0000
,
0100
0030
1000
0000
0100
0000
0010
0000
0100
0000
1000
0000
0200
0000
0000
0000
0010
0000
0300
0000
0010
0000
0001
0000
1000
0000
0100
0000
0020
0000
0000
0000
,
0100
0030
0010
0000
0001
0000
0010
0000
0100
0000
0010
0000
0200
0000
0000
0000
0310
0000
0000
0000
0010
0000
0001
0000
1000
0000
0100
0000
0010
0000
0100
0000
,
1000
0000
0100
0000
0010
0000
0000
0000
0010
0000
0001
0000
2000
0000
0000
0000
0010
3000
0100
0000
0010
0000
0100
0000
0001
0000
0100
0000
0020
0000
0000
0000
,
0100
0030
0001
0000
0010
0000
0100
0000
0010
0000
0100
0000
2000
0000
0000
0000
0010
3000
0100
0000
0010
0000
0001
0000
0010
0000
1000
0000
0002
0000
0000
0000
,
1000
0003
0001
0000
1000
0000
0010
0000
0100
0000
1000
0000
0200
0000
0000
0000
0010
0300
0100
0000
0001
0000
1000
0000
0100
0000
0010
0000
0200
0000
0000
0000
,
0010
0300
0100
0000
1000
0000
0001
0000
0000
0000
0101
0000
0000
0000
1100
0000
0000
0000
1001
0000
0000
0000
0000
0000
0110
0000
0000
0000
0000
0000
0000
0000
,
0101
0000
0010
2000
0002
0000
0000
0000
0000
0000
0000
0000
0000
0000
0000
0000
,
3003
0000
0000
0000
;

//---------------dance-single - K. Ward----------------
#NOTES:
     dance-single:
     K. Ward:
     Medium:
     6:
     0.389,0.570,0.390,0.140,0.005,219.000,39.000,14.000,32.000,0.000,2.000:
0000
0000
0000
0000
,
0000
0000
0000
0000
,
0000
0000
0000
0000
,
0000
0000
0000
0000
,
1000
0100
1000
0000
0001
0010
0001
0000
,
1000
0100
0010
0000
0010
0100
1000
0000
,
0010
0100
0001
0000
0010
0001
1000
0000
,
0001
0001
1000
1000
,
0010
0100
0001
0000
0010
0001
1000
0000
,
0100
0010
0100
0000
0010
0001
1000
0000
,
0010
0100
0001
0000
0100
0010
1000
0000
,
0100
0100
0010
0010
,
0001
0010
0001
0000
0010
0000
0110
0000
,
1000
0100
1000
0000
0010
0000
0110
0000
,
0001
1000
0001
0000
0100
0000
0110
0000
,
0001
0110
1000
0110
,
0000
0000
0001
0001
0001
0000
1001
0000
,
0000
0000
1000
1000
1000
0000
1001
0000
,
0000
0000
0010
0010
0000
0000
0100
0100
,
0000
1001
0110
1001
,
0000
0000
1100
0000
0000
0011
0000
0000
,
0000
1000
0100
1010
,
0110
1001
0000
0000
,
1000
0100
0001
0100
,
1000
1100
0000
0000
,
0001
0011
1000
1100
,
0010
0110
0000
0000
,
0001
1000
0001
0000
0020
0000
0100
0000
,
0130
0010
0001
0001
,
0100
0000
0010
0000
1000
0100
1000
0000
,
0010
0000
0110
0000
0000
0011
0000
0000
,
0000
0001
1000
0100
,
0010
0000
0100
0000
0000
1010
0000
0000
,
0000
0000
0100
0000
0001
0010
0100
0000
,
0020
0001
0031
0000
,
0100
0100
0010
0000
,
4000
0004
0000
0000
0M00
0000
0000
0000
0000
0000
0000
0000
0000
0000
0000
0000
,
00M0
0000
0000
0000
,
0000
0M00
0000
0000
,
0000
0000
00M0
0000
,
0000
0000
0000
0M00
,
0000
0000
0000
0000
,
00M0
0000
0000
0000
,
0000
0M00
0000
0000
,
0000
00M0
0000
0000
,
0000
0M00
0000
0000
,
0000
00M0
0000
0000
,
0M00
0000
0000
00M0
,
0000
0000
0M00
0000
,
0000
0000
00M0
0000
,
0000
0000
0000
0M00
,
0000
0000
00M0
0000
,
0000
0000
0M00
0000
,
0000
0000
00M0
0000
,
0000
0000
0000
0M00
,
0000
0000
0000
00M0
,
0000
0000
0000
0000
,
0M00
0000
0000
0000
,
00M0
0000
0000
0000
,
0000
0000
0000
0M00
,
0000
0000
0000
0000
,
0000
0000
00M0
0000
,
0000
0000
0000
0000
,
0000
0000
0M00
0000
,
0000
0000
0000
0000
,
0000
0000
0000
0000
,
00M0
0000
0000
0000
,
0000
0000
0000
0000
,
0M00
0000
0000
0000
,
00M0
0000
0000
0000
,
0M00
0000
3003
0000
,
0101
0000
1010
0000
,
0101
0000
0000
1000
1100
0000
0000
0000
,
0110
0000
0011
0000
,
0110
0000
0000
1000
1001
0000
0000
0000
,
1000
0100
2000
0000
3100
0000
0000
0000
,
0010
0100
0002
0000
0013
0000
0000
0000
,
0010
0100
0020
0000
0130
0000
0000
0000
,
0110
0000
1001
0000
0001
0010
0100
0000
,
2000
0000
3000
0000
1000
0100
0010
0000
,
0002
0000
0003
0000
0001
0010
0100
0000
,
2000
3000
0010
1001
,
0110
0000
0000
0000
1000
1000
1000
0000
,
0200
0000
0300
0M00
0001
0001
0001
0000
,
0020
0000
0030
00M0
1000
1000
1000
0000
,
0200
0000
0300
0M00
1000
0000
0001
0000
,
1001
0000
0000
0001
0000
0010
0000
0100
,
0010
0000
0000
1000
0000
0010
0000
0100
,
0001
0000
0000
0100
0000
0010
0000
1000
,
0000
0002
0000
1000
,
1003
0000
0001
0010
0001
0000
0100
0010
,
0100
0000
0001
1000
0001
0000
0000
0000
,
0100
0000
0100
0000
1000
0000
0100
0010
,
0100
0000
1001
0110
,
1001
2002
0000
0000
,
3003
0000
0000
0000
;

//---------------dance-single - ----------------
#NOTES:
     dance-single:
     :
     Beginner:
     1:
     0.097,0.189,0.060,0.000,0.000,62.000,6.000,0.000,0.000,0.000,0.000:

0000
0000
0000
0000
,
0000
0000
0000
0000
,
0000
0000
0000
0000
,
0000
0000
0000
0000
,
1000
0000
1000
0000
,
1000
0000
0000
0000
,
0001
0000
0001
0000
,
0001
0000
0000
0000
,
0010
0000
0100
0000
,
0010
0000
0000
0000
,
0001
0000
1000
0000
,
0001
0000
0000
0000
,
0100
0000
0000
0000
,
0000
0000
0000
0000
,
0001
0000
0000
0000
,
0000
0000
0000
0000
,
1000
0000
0000
0000
,
0000
0000
0000
0000
,
0001
0000
0000
0000
,
0000
0000
0000
0000
,
1001
0000
0000
0000
,
0000
0000
0000
0000
,
0010
0000
0000
0000
,
0100
0000
0100
0000
,
0001
0000
0000
0000
,
1000
0000
0000
0000
,
0001
0000
0000
0000
,
0110
0000
0000
0000
,
0010
0000
0000
0000
,
0001
0000
0000
0000
,
0100
0000
0000
0000
,
1000
0000
0000
0000
,
0010
0000
0010
0000
,
0000
0000
0000
0000
,
0100
0000
0100
0000
,
0000
0000
0000
0000
,
1001
0000
0000
0000
,
0000
0000
0000
0000
,
0000
0000
0000
0000
,
0000
0000
0000
0000
,
0000
0000
0000
0000
,
0000
0000
0000
0000
,
0000
0000
0000
0000
,
0000
0000
0000
0000
,
0000
0000
0000
0000
,
0000
0000
0000
0000
,
0000
0000
0000
0000
,
0000
0000
0000
0000
,
0000
0000
0000
0000
,
0000
0000
0000
0000
,
0000
0000
0000
0000
,
0000
0000
0000
0000
,
0000
0000
0000
0000
,
0000
0000
0000
0000
,
0000
0000
0000
0000
,
0000
0000
0000
0000
,
0000
0000
0000
0000
,
0000
0000
0000
0000
,
0000
0000
0000
0000
,
0000
0000
0000
0000
,
0000
0000
0000
0000
,
0000
0000
0000
0000
,
0000
0000
0000
0000
,
0000
0000
0000
0000
,
0000
0000
0000
0000
,
0000
0000
0000
0000
,
0000
0000
0000
0000
,
0000
0000
0000
0000
,
0000
0000
0000
0000
,
0000
0000
0000
0000
,
0000
0000
0000
1000
,
0000
0000
0000
0000
,
0000
0000
0000
0001
,
0000
0000
0000
0000
,
0000
0000
0000
1000
,
0000
1000
0000
1000
,
0000
0000
0000
0001
,
0000
0001
0000
0001
,
0000
0000
0010
0010
,
0010
0000
0000
0000
,
0000
0000
0100
0000
,
0100
0000
0000
0000
,
0000
0000
0010
0000
,
0010
0000
0010
0000
,
0000
0000
0001
0000
,
1000
0000
0001
0000
,
0000
0000
1000
0000
,
0000
0000
0001
0000
,
0000
0000
1000
0000
,
0000
0010
0000
0100
,
0000
0001
0000
0000
,
0000
1000
0000
0000
,
0000
1001
0000
0000
,
0000
0110
0000
0000
,
0000
1001
0000
0000
;
